Family Guy S14E05 INTERNAL HDTV x264-KILLERS[rartv]

seeders: 4
leechers: 2
updated:
Added by z0n3212.57M in TV
Torrent verified. Downloaded 8,992 times.

DownloadFast Safe Anonymous
movies, software, shows...
  • View all Family Guy episodes
  • Episode title: Peter, Chris, & Brian
  • Episode: S14E05
  • Air date: 08 November 2015
  • IMDb link: 0182576
  • TVmaze link: Family Guy
  • Original run: 31 January 1999 — Present
  • Summary:

    In a wacky Rhode Island town, a dysfunctional family strive to cope with everyday life as they are thrown from one crazy scenario to another.

    Written by Thhaque414.93K
Available in versions: 1080p720p480pHDTVWEBRipx264x265iPhone
Family Guy S14E05 INTERNAL HDTV x264-KILLERS[rartv] (Size: 74.97 MB)
  Family.Guy.S14E05.INTERNAL.HDTV.x264-KILLERS.mp4 74.96 MB
  rarbg.com.txt 34 bytes
  Family.Guy.S14E05.INTERNAL.HDTV.x264-KILLERS.nfo 10.62 KB

Description


http://rarbg.to
Family.Guy.S14E05.INTERNAL.HDTV.x264-KILLERS[rartv]

image
Screens :

image
Mediainfo :

Video
ID : 2
Format : AVC
Format/Info : Advanced Video Codec
Format profile : [email protected]
Format settings, CABAC : Yes
Format settings, ReFrames : 5 frames
Codec ID : avc1
Codec ID/Info : Advanced Video Coding
Duration : 20mn 56s
Source duration : 20mn 56s
Bit rate : 377 Kbps
Maximum bit rate : 5 168 Kbps
Width : 720 pixels
Height : 404 pixels
Display aspect ratio : 16:9
Frame rate mode : Constant
Frame rate : 23.976 fps
Color space : YUV
Chroma subsampling : 4:2:0
Bit depth : 8 bits
Scan type : Progressive
Bits/(Pixel*Frame) : 0.054
Stream size : 56.5 MiB (75%)
Source stream size : 56.5 MiB (75%)
Writing library : x264 core 148 r2638 7599210
Encoding settings : cabac=1 / ref=5 / deblock=1:0:0 / analyse=0x3:0x113 / me=umh / subme=8 / psy=1 / psy_rd=1.00:0.00 / mixed_ref=1 / me_range=16 / chroma_me=1 / trellis=1 / 8x8dct=1 / cqm=0 / deadzone=21,11 / fast_pskip=1 / chroma_qp_offset=-2 / threads=13 / lookahead_threads=2 / sliced_threads=0 / nr=0 / decimate=1 / interlaced=0 / bluray_compat=0 / constrained_intra=0 / bframes=3 / b_pyramid=2 / b_adapt=2 / b_bias=0 / direct=3 / weightb=1 / open_gop=0 / weightp=2 / keyint=250 / keyint_min=23 / scenecut=40 / intra_refresh=0 / rc_lookahead=50 / rc=crf / mbtree=1 / crf=19.0 / qcomp=0.60 / qpmin=0 / qpmax=69 / qpstep=4 / ip_ratio=1.40 / aq=1:1.00
Encoded date : UTC 2015-11-09 03:47:00
Tagged date : UTC 2015-11-09 03:48:51
Color range : Limited
Matrix coefficients : BT.709

Audio
ID : 1
Format : AAC
Format/Info : Advanced Audio Codec
Format profile : LC
Codec ID : 40
Duration : 20mn 56s
Bit rate mode : Variable
Bit rate : 119 Kbps
Maximum bit rate : 181 Kbps
Channel(s) : 2 channels
Channel positions : Front: L R
Sampling rate : 48.0 KHz
Compression mode : Lossy
Stream size : 17.8 MiB (24%)
Encoded date : UTC 2015-11-09 03:48:51
Tagged date : UTC 2015-11-09 03:48:51

Related Torrents

torrent name size files age seed leech

Sharing Widget


Download torrent
74.97 MB
seeders:4
leechers:2
Family Guy S14E05 INTERNAL HDTV x264-KILLERS[rartv]



To share this torrent use the code below and insert it into comments, status messages, forum posts or your signature.

Torrent: Family Guy S14E05 INTERNAL HDTV x264-KILLERS[rartv]

Trackers

tracker name
udp://tracker.openbittorrent.com:80/announce
udp://tracker.publicbt.com:80/announce
udp://coppersurfer.tk:6969/announce
udp://open.demonii.com:1337/announce
http://tracker.aletorrenty.pl:2710/announce
udp://glotorrents.pw:6969/announce
udp://tracker4.piratux.com:6969/announce
http://tracker.mg64.net:6881/announce
µTorrent compatible trackers list

Locations

name
KickassTorrents
Torrent hash: A23BF7281055E82AC72A26A5E45BD71B945E6C83

All Comments

audio
9/10
video
9/10
please, leave only comments related to that torrent
Sign In

audio: 10video: 10
Brilliant quality!
Thank you z0n3212.57M
audio: 9video: 9
Thank you for the up - v.good quality thump_upyesthump_up
audio: 10video: 10
Great Quality. Thank you for sharing :)
audio: 9video: 9
thanks

User Opinions

Dundy254.43K, mordecai7745.99K, pepsi197511.75K, alfred853808, madhu2bhat3596, WoLvrIn32178, GrayMarmota2077, NotYourFriend1863, Slim149684, DiegoPaps23 ... And 36 more
Report a bug Open chat