Modern Family S07E22 INTERNAL 720p HDTV x264-KILLERS[rartv]

seeders: 28
leechers: 2
updated:
Added by z0n3212.59M in TV
Torrent verified. Downloaded 10,430 times.

DownloadFast Safe Anonymous
movies, software, shows...
  • View all Modern Family episodes
  • Episode title: Double Click
  • Episode: S07E22
  • Air date: 18 May 2016
  • IMDb link: 1442437
  • TVmaze link: Modern Family
  • Original run: 23 September 2009 — Present
  • Summary:

    Three different, but related families face trials and tribulations in their own uniquely comedic ways.

    Written by Eppo77.2K
Available in versions: 1080p720p480pHDTVWEBRipx264x265
Modern Family S07E22 INTERNAL 720p HDTV x264-KILLERS[rartv] (Size: 557.33 MB)
  Modern.Family.S07E22.INTERNAL.720p.HDTV.x264-KILLERS.mkv 557.32 MB
  rarbg.com.txt 34 bytes
  Modern.Family.S07E22.INTERNAL.720p.HDTV.x264-KILLERS.nfo 7.07 KB

Description


http://rarbg.to
Modern.Family.S07E22.INTERNAL.720p.HDTV.x264-KILLERS[rartv]

image
Screens :

image
Mediainfo :

Video
ID : 1
Format : AVC
Format/Info : Advanced Video Codec
Format profile : [email protected]
Format settings, CABAC : Yes
Format settings, ReFrames : 5 frames
Codec ID : V_MPEG4/ISO/AVC
Duration : 21mn 27s
Bit rate : 3 174 Kbps
Width : 1 280 pixels
Height : 718 pixels
Display aspect ratio : 16:9
Frame rate mode : Constant
Frame rate : 23.976 (24000/1001) fps
Color space : YUV
Chroma subsampling : 4:2:0
Bit depth : 8 bits
Scan type : Progressive
Bits/(Pixel*Frame) : 0.144
Stream size : 487 MiB (87%)
Writing library : x264 core 148 r2692 64f4e24
Encoding settings : cabac=1 / ref=5 / deblock=1:0:0 / analyse=0x3:0x113 / me=umh / subme=8 / psy=1 / psy_rd=1.00:0.00 / mixed_ref=1 / me_range=16 / chroma_me=1 / trellis=1 / 8x8dct=1 / cqm=0 / deadzone=21,11 / fast_pskip=1 / chroma_qp_offset=-2 / threads=22 / lookahead_threads=3 / sliced_threads=0 / nr=0 / decimate=1 / interlaced=0 / bluray_compat=0 / constrained_intra=0 / bframes=3 / b_pyramid=2 / b_adapt=2 / b_bias=0 / direct=3 / weightb=1 / open_gop=0 / weightp=2 / keyint=250 / keyint_min=23 / scenecut=40 / intra_refresh=0 / rc_lookahead=50 / rc=crf / mbtree=1 / crf=18.0 / qcomp=0.60 / qpmin=0 / qpmax=69 / qpstep=4 / ip_ratio=1.40 / aq=1:1.00
Default : Yes
Forced : No
Color range : Limited
Matrix coefficients : BT.709

Audio
ID : 2
Format : AC-3
Format/Info : Audio Coding 3
Mode extension : CM (complete main)
Format settings, Endianness : Big
Codec ID : A_AC3
Duration : 21mn 27s
Bit rate mode : Constant
Bit rate : 384 Kbps
Channel(s) : 6 channels
Channel positions : Front: L C R, Side: L R, LFE
Sampling rate : 48.0 KHz
Frame rate : 31.250 fps (1536 spf)
Compression mode : Lossy
Stream size : 59.0 MiB (11%)
Default : Yes
Forced : No

Related Torrents

torrent name size files age seed leech

Sharing Widget


Download torrent
557.33 MB
seeders:39
leechers:2
Modern Family S07E22 INTERNAL 720p HDTV x264-KILLERS[rartv]



To share this torrent use the code below and insert it into comments, status messages, forum posts or your signature.

Torrent: Modern Family S07E22 INTERNAL 720p HDTV x264-KILLERS[rartv]

Trackers

tracker name
udp://tracker.openbittorrent.com:80/announce
udp://tracker.coppersurfer.tk:6969/announce
http://tracker.aletorrenty.pl:2710/announce
udp://glotorrents.pw:6969/announce
http://mgtracker.org:2710/announce
http://tracker1.wasabii.com.tw:6969/announce
udp://tracker.opentrackr.org:1337/announce
µTorrent compatible trackers list

Locations

name
KickassTorrents
Torrent hash: B1536564C3FB05706F990FB60E4110BA7341F31D

All Comments

audio
9/10
video
9/10
please, leave only comments related to that torrent
Sign In

audio: 10video: 10
Great quality.Thanks.
audio: 10video: 10
excellent quality...thank you...

User Opinions

HalfMelted11.19K, Tommy Jay6917, inggrriid3391, Goenwae3345, -Gia-3327, papitsa1114, AlBeick965, wan-dall504, SolSys494, izod5292 ... And 52 more
Report a bug Open chat